Skip to main content

Toubab Krewe Live at Ram's Head Onstage on 2007-11-28




Toubab Krewe
November 28, 2007
Ram's Head Onstage
Annapolis MD

*** THIS IS A 16-BIT FILESET INTENDED FOR AUDIO CD ***

SOURCE: mbho 603a/ka100dk (jecklin) > sound devices mp2 > busman t-mod edirol r4 (24/96)
PROCESSING: soundforge 8.0 (tracking, fades, resample, dither) > flac 1.2.1b

SET ONE
01
02
03
04
05
06
07
08

SET TWO
01
02
03
04
05
06
07
08
09
10
11


Collection ToubabKrewe
Band/Artist Toubab Krewe
Venue Ram's Head Onstage
Location Annapolis MD

Source mbho 603a/ka100dk (jecklin) > sound devices mp2 > busman t-mod edirol r4 (24/96)
Lineage soundforge 8.0 (tracking, fades, resample, dither) > flac 1.2.1b
Taped by Peter W. King
Transferred by Peter W. King

Notes

length expanded size cdr WAVE problems fmt ratio filename
6:30.37 68883068 B --- -- ---xx flac 0.5721 toubabkrewe2007-11-28_set1_mbho_t01.flac
7:16.53 77035100 B --- -- ---xx flac 0.5790 toubabkrewe2007-11-28_set1_mbho_t02.flac
10:46.07 113970908 B --- -- ---xx flac 0.5712 toubabkrewe2007-11-28_set1_mbho_t03.flac
8:34.60 90810764 B --- -- ---xx flac 0.5706 toubabkrewe2007-11-28_set1_mbho_t04.flac
8:02.30 85095404 B --- -- ---xx flac 0.4315 toubabkrewe2007-11-28_set1_mbho_t05.flac
8:39.00 91551644 B --- -- ---xx flac 0.5606 toubabkrewe2007-11-28_set1_mbho_t06.flac
7:28.68 79187180 B --- -- ---xx flac 0.6121 toubabkrewe2007-11-28_set1_mbho_t07.flac
8:44.08 92452460 B --- -- ---xx flac 0.5789 toubabkrewe2007-11-28_set1_mbho_t08.flac
2:14.52 23759948 B --- -- ---xx flac 0.3508 toubabkrewe2007-11-28_set2_mbho_t01.flac
2:03.68 21857180 B --- -- ---xx flac 0.3098 toubabkrewe2007-11-28_set2_mbho_t02.flac
4:06.15 43429724 B --- -- ---xx flac 0.5711 toubabkrewe2007-11-28_set2_mbho_t03.flac
9:04.52 96083948 B --- -- ---xx flac 0.5427 toubabkrewe2007-11-28_set2_mbho_t04.flac
5:23.38 57066620 B --- -- ---xx flac 0.5951 toubabkrewe2007-11-28_set2_mbho_t05.flac
6:10.07 65284508 B --- -- ---xx flac 0.5662 toubabkrewe2007-11-28_set2_mbho_t06.flac
7:20.45 77721884 B --- -- ---xx flac 0.5362 toubabkrewe2007-11-28_set2_mbho_t07.flac
5:22.08 56819660 B --- -- ---xx flac 0.5921 toubabkrewe2007-11-28_set2_mbho_t08.flac
6:54.67 73187228 B --- -- ---xx flac 0.5573 toubabkrewe2007-11-28_set2_mbho_t09.flac
11:07.08 117677660 B --- -- ---xx flac 0.5777 toubabkrewe2007-11-28_set2_mbho_t10.flac
8:04.15 85412924 B --- -- ---xx flac 0.6117 toubabkrewe2007-11-28_set2_mbho_t11.flac
133:54.38 1417287812 B 0.5576 (19 files)

Reviews

There are no reviews yet. Be the first one to write a review.
DOWNLOAD OPTIONS
In Collection
Toubab Krewe
In Collection
Live Music Archive
Uploaded by
peterwking
on 8/5/2013
Views
24
PEOPLE ALSO FOUND
Toubab Krewe
by Toubab Krewe
61
0
0
Source: mbho603a/ka500hn (hypercardioid, DIN) > mp2 > busman t-mod edirol r4 (24/96)
Toubab Krewe
by Toubab Krewe
55
0
0
Source: mbho 603a/ka500hn (hypercardioid, DIN) > mp2 > busman t-mod edirol r4 (24/96)
Toubab Krewe
by Toubab Krewe
24
0
0
Source: mbho 603a/ka100dk (jecklin) > sound devices mp2 > busman t-mod edirol r4 (24/96)
Toubab Krewe
by Toubab Krewe
27
0
0
Source: mbho 603a/ka100dk (jecklin) > sound devices mp2 > busman t-mod edirol r4 (24/96)
Toubab Krewe
by Toubab Krewe
52
0
0
Source: studio projects LSD2 (blumlein) > busman t-mod edirol r4 (24/96)
Toubab Krewe
by Toubab Krewe
746
1
4
( 4 reviews )
Source: schoeps mk4v (ORTF) > vms02ib > busman t-mod edirol r4 (24/96)
Toubab Krewe
by Toubab Krewe
189
1
0
Source: LSD2 (blumlein) > mp2 > busman t-mod edirol r4 (24/96)
Toubab Krewe
by Toubab Krewe
5,284
2
1
( 1 reviews )
Source: LSD2 (blumlein) > mp2 > busman t-mod edirol r4 (24/96)
Umphreys McGee
by Umphreys McGee
672
1
0
Source: studio projects LSDII (mid/side) > busman t-mod edirol r4 (24/96)
The Lee Boys
by The Lee Boys
180
2
0
Source: dpa 4061 (jecklin) > soundpro batt box > edirol r1 (24/44.1)